Iron Man 2008 720p

Go down

rate iron man

0% 0% 
[ 0 ]
0% 0% 
[ 0 ]
 
Total Votes : 0

Iron Man 2008 720p

Post by Admin on Fri Aug 04, 2017 12:42 am



Billionaire industrialist and genius inventor Tony Stark is kidnapped and forced to build a devastating weapon. Instead, using his intelligence and ingenuity, he builds a high-tech suit of armor and escapes captivity. When he uncovers a nefarious plot with global implications, he dons his powerful armor and vows to protect the world as Iron Man.

Codec ID : V_MPEG4/ISO/AVC
Duration : 2 h 6 min
Bit rate : 765 kb/s
Width : 1 280 pixels
Height : 544 pixels
Display aspect ratio : 2.35:1
Frame rate mode : Constant
Frame rate : 23.976 (24000/1001) FPS
Color space : YUV
Chroma subsampling : 4:2:0
Bit depth : 8 bits
Scan type : Progressive
Bits/(Pixel*Frame) : 0.046
Stream size : 689 MiB (50%)
Writing library : x264 core 116 r2074 2641b9e

ID : 2
Format : DTS
Format/Info : Digital Theater Systems
Mode : 16
Format settings, Endianness : Big
Codec ID : A_DTS
Duration : 2 h 6 min
Bit rate mode : Constant
Bit rate : 755 kb/s
Channel(s) : 2 channels
Channel positions : Front: L R
Sampling rate : 44.1 kHz
Frame rate : 86.133 FPS (512 SPF)
Bit depth : 16 bits
Compression mode : Lossy
Stream size : 681 MiB (50%)

http://rg.to/file/9a554b370fa68f2abcbbd6d0592c939f/Iron_Man_2008_720p.mkv.html

Admin
Admin

Posts : 46
Join date : 2017-07-30

View user profile http://moviestreams.board-directory.net

Back to top Go down

Back to top

- Similar topics

 
Permissions in this forum:
You cannot reply to topics in this forum