The Dark Knight 2008 720p

Go down

rate the dark night

0% 0% 
[ 0 ]
0% 0% 
[ 0 ]
0% 0% 
[ 0 ]
0% 0% 
[ 0 ]
 
Total Votes : 0

The Dark Knight 2008 720p

Post by Admin on Fri Aug 04, 2017 12:28 am



With the help of Lieutenant Jim Gordon and District Attorney Harvey Dent, the Batman has been making headway against local crime... until a rising criminal mastermind known as The Joker unleashes a fresh reign of chaos across Gotham City. To stop this devious new menace — Batman's most personal and vicious enemy yet — he will have to use every high-tech weapon in his arsenal and confront everything he believes.

Codec ID : V_MPEG4/ISO/AVC
Duration : 2 h 32 min
Bit rate : 773 kb/s
Width : 1 280 pixels
Height : 528 pixels
Display aspect ratio : 2.40:1
Frame rate mode : Constant
Frame rate : 23.976 (24000/1001) FPS
Color space : YUV
Chroma subsampling : 4:2:0
Bit depth : 8 bits
Scan type : Progressive
Bits/(Pixel*Frame) : 0.048
Stream size : 841 MiB (50%)
Writing library : x264 core 125 r2200 999b753

ID : 2
Format : DTS
Format/Info : Digital Theater Systems
Mode : 16
Format settings, Endianness : Big
Codec ID : A_DTS
Duration : 2 h 32 min
Bit rate mode : Constant
Bit rate : 756 kb/s
Channel(s) : 2 channels
Channel positions : Front: L R
Sampling rate : 48.0 kHz
Frame rate : 93.750 FPS (512 SPF)
Bit depth : 16 bits
Compression mode : Lossy
Stream size : 823 MiB (49%)

http://rg.to/file/1595fce23f68d4940969e2a0adc17e63/The_Dark_Knight_2008_720p.mkv.html

Admin
Admin

Posts : 46
Join date : 2017-07-30

View user profile http://moviestreams.board-directory.net

Back to top Go down

Back to top

- Similar topics

 
Permissions in this forum:
You cannot reply to topics in this forum