Inception 2010 720p

Go down

rate Inception

0% 0% 
[ 0 ]
0% 0% 
[ 0 ]
 
Total Votes : 0

Inception 2010 720p

Post by Admin on Fri Aug 04, 2017 12:39 am



Dom Cobb is a professional thief with a difference: the spoils he goes after are not material objects but the thoughts, dreams and secrets buried in the minds of other people. This rare talent has cost him dear, rendering him a solitary fugitive stripped of everything he ever really cared about. When he is offered a chance for redemption by reversing the process and planting an idea rather than stealing it, he and his team of specialists find themselves pitted against a dangerous enemy that appears to pre-empt their every move.

Codec ID : V_MPEG4/ISO/AVC
Duration : 2 h 28 min
Bit rate : 999 kb/s
Width : 1 280 pixels
Height : 536 pixels
Display aspect ratio : 2.40:1
Frame rate mode : Constant
Frame rate : 23.976 FPS
Color space : YUV
Chroma subsampling : 4:2:0
Bit depth : 8 bits
Scan type : Progressive
Bits/(Pixel*Frame) : 0.061
Stream size : 1.03 GiB (57%)
Title : Inception - YIFY
Writing library : x264 core 98 r1649 20cbe10

ID : 2
Format : DTS
Format/Info : Digital Theater Systems
Mode : 16
Format settings, Endianness : Big
Codec ID : A_DTS
Duration : 2 h 28 min
Bit rate mode : Constant
Bit rate : 756 kb/s
Channel(s) : 2 channels
Channel positions : Front: L R
Sampling rate : 48.0 kHz
Frame rate : 93.750 FPS (512 SPF)
Bit depth : 16 bits
Compression mode : Lossy
Stream size : 801 MiB (43%)

http://rg.to/file/6bca94dc351709cf9eae33876a4700af/Inception_2010_720p.mkv.html

Admin
Admin

Posts : 46
Join date : 2017-07-30

View user profile http://moviestreams.board-directory.net

Back to top Go down

Back to top

- Similar topics

 
Permissions in this forum:
You cannot reply to topics in this forum