Batman Begins 2005 720p

Go down

rate batman begins

0% 0% 
[ 0 ]
0% 0% 
[ 0 ]
 
Total Votes : 0

Batman Begins 2005 720p

Post by Admin on Fri Aug 04, 2017 12:37 am



The origins of the Batman legend and the Dark Knight's emergence as a force for good in Gotham. In the wake of his parents' murder, disillusioned industrial heir Bruce Wayne travels the world seeking the means to fight injustice and turn fear against those who prey on the fearful. He returns to Gotham and unveils his alter-ego: Batman, a masked crusader who uses his strength, intellect and an array of high tech deceptions to fight the sinister forces that threaten the city.

Codec ID : V_MPEG4/ISO/AVC
Duration : 2 h 20 min
Bit rate : 749 kb/s
Width : 1 280 pixels
Height : 536 pixels
Display aspect ratio : 2.40:1
Frame rate mode : Constant
Frame rate : 23.976 (24000/1001) FPS
Color space : YUV
Chroma subsampling : 4:2:0
Bit depth : 8 bits
Scan type : Progressive
Bits/(Pixel*Frame) : 0.046
Stream size : 750 MiB (50%)
Writing library : x264 core 125 r2200 999b753

ID : 2
Format : DTS
Format/Info : Digital Theater Systems
Mode : 16
Format settings, Endianness : Big
Codec ID : A_DTS
Duration : 2 h 20 min
Bit rate mode : Constant
Bit rate : 756 kb/s
Channel(s) : 2 channels
Channel positions : Front: L R
Sampling rate : 48.0 kHz
Frame rate : 93.750 FPS (512 SPF)
Bit depth : 16 bits
Compression mode : Lossy
Stream size : 757 MiB (50%)

http://rg.to/file/009e302c68b4dba51ff46c151a2bb8e4/Batman_Begins_2005_720p.mkv.html

Admin
Admin

Posts : 46
Join date : 2017-07-30

View user profile http://moviestreams.board-directory.net

Back to top Go down

Back to top

- Similar topics

 
Permissions in this forum:
You cannot reply to topics in this forum